Mowgli Legend Of The Jungle 2018 Movies Torrent Free Download

Seeders : 424   &   Leechers : 234      07-12-2018 (5 days)
Mowgli Legend Of The Jungle 2018 Movies Torrent Download
Added: ago by nehalpuja ***** in Movies   705.1 MB   Hits : 17
Info Hash: 09876AF98C03C953F9B0E6D7727F0EC76798EBB3 Download
Mowgli Legend Of The Jungle 2018 Movies Torrent Download

Anonymous and Direct Download movies , software , shows...

Fast Safe Anonymous
movies, software, shows...

Torrent Description



Mowgli Legend Of The Jungle 2018 Movies HDRip x264 with Sample ☻rDX☻
===============================================================================================

SCREEN SHOTS:



or

http://iphonehosting.eu/2018/11/b/bike/1.html

File size : 697 MiB
Duration : 1 h 44 min
Overall bit rate mode : Constant
Overall bit rate : 929 kb/s
Movie name : Mowgli Legend Of The Jungle 2018 Movies HDRip x264 ☻rDX☻

Video
ID : 2
Format : AVC
Format/Info : Advanced Video Codec
Format profile : [email protected]
Format settings, CABAC : Yes
Format settings, ReFrames : 2 frames
Format settings, GOP : M=1, N=12
Codec ID : V_MPEG4/ISO/AVC
Duration : 1 h 44 min
Bit rate mode : Constant
Bit rate : 866 kb/s
Width : 720 pixels
Height : 304 pixels
Display aspect ratio : 2.35:1
Frame rate mode : Constant
Frame rate : 23.976 FPS
Color space : YUV
Chroma subsampling : 4:2:0
Bit depth : 8 bits
Scan type : Progressive
Bits/(Pixel*Frame) : 0.165
Stream size : 635 MiB (91%)
Title : ☻rDX☻
Default : Yes
Forced : No

Audio
ID : 1
Format : AC-3
Format/Info : Audio Coding 3
Mode extension : CM (complete main)
Format settings, Endianness : Big
Codec ID : A_AC3
Duration : 1 h 44 min
Bit rate mode : Constant
Bit rate : 64.0 kb/s
Channel(s) : 2 channels
Channel positions : Front: L R
Sampling rate : 44.1 kHz
Frame rate : 28.711 FPS (1536 spf)
Bit depth : 16 bits
Compression mode : Lossy
Stream size : 48.0 MiB (7%)
Title : ☻rDX☻
Default : Yes
Forced : No

http://www.imdb.com/title/tt2388771




Sharing Widget


No Comments For This Torrent . Be The First to Comment

You must Login to Comment . Click Here to Login

Menu 1

Some content in menu 1.

Mowgli Legend Of The Jungle 2018 Movies HDRip x264 with Sample ☻rDX (Size: 705.1 MB)
  Mowgli Legend Of The Jungle 2018 Movies HDRip x264 with Sample ☻rDX 705.1 MB
tracker name
udp://tracker.leechers-paradise.org:6969/announce
udp://zer0day.ch:1337/announce
udp://open.demonii.com:1337/announce
udp://tracker.coppersurfer.tk:6969/announce
udp://exodus.desync.com:6969/announce
µTorrent compatible trackers list

Relative Torrents

Torrent Name Size Age SEED LEECH
Knowing (2009) (1080p BluRay x265 HEVC 1bit AAC 7 1 Q22 Joy) [UTR]
Posted by    UTRCorp   in   Movies
2.1 GB 52 seconds 521 555
Knowing (2009) (1080p BluRay x265 HEVC 1bit AAC 7 1 Joy) [UTR]
Posted by    UTRCorp   in   Movies
1.6 GB 52 seconds 951 714
The Possession of Hannah Grace (2018) 72p HDCAM [Hindi (Clean) + English] x264
Posted by    Phenomenal   in   Movies
968.7 MB 52 seconds 465 315
Tucker and Dale vs Evil (2010) (1080p BuRay x265 HEVC 10bit AAC 5 1 Q22 Joy) [
Posted by    UTRCorp   in   Movies
1.8 GB 52 seconds 247 400
Tucker and Dale vs Evil (2010) (1080p BuRay x265 HEVC 10bit AAC 5 1 Joy) [UTR]
Posted by    UTRCorp   in   Movies
1.1 GB 52 seconds 149 608