Mowgli Legend Of The Jungle 2018 Movies Torrent Free Download

Seeders : 514   &   Leechers : 835      07-12-2018 (5 days)
Mowgli Legend Of The Jungle 2018 Movies Torrent Download
Added: ago by nehalpuja ***** in Movies   946.0 MB   Hits : 15
Info Hash: 0938F5DA49B8C8BD2E1C69CF8F7EAFB364CF1665 Download
Mowgli Legend Of The Jungle 2018 Movies Torrent Download

Anonymous and Direct Download movies , software , shows...

Fast Safe Anonymous
movies, software, shows...

Torrent Description



Mowgli Legend Of The Jungle 2018 Movies HDRip x264 5.1 with Sample ☻rDX☻
===============================================================================================

SCREEN SHOTS:



or

http://iphonehosting.eu/2018/11/b/bike/1.html

File size : 937 MiB
Duration : 1 h 44 min
Overall bit rate mode : Constant
Overall bit rate : 1 249 kb/s
Movie name : Mowgli Legend Of The Jungle 2018 Movies HDRip x264 5.1 ☻rDX☻

Video
ID : 2
Format : AVC
Format/Info : Advanced Video Codec
Format profile : [email protected]
Format settings, CABAC : Yes
Format settings, ReFrames : 2 frames
Format settings, GOP : M=1, N=12
Codec ID : V_MPEG4/ISO/AVC
Duration : 1 h 44 min
Bit rate mode : Constant
Bit rate : 866 kb/s
Width : 720 pixels
Height : 304 pixels
Display aspect ratio : 2.35:1
Frame rate mode : Constant
Frame rate : 23.976 FPS
Color space : YUV
Chroma subsampling : 4:2:0
Bit depth : 8 bits
Scan type : Progressive
Bits/(Pixel*Frame) : 0.165
Stream size : 630 MiB (67%)
Title : ☻rDX☻
Default : Yes
Forced : No

Audio
ID : 1
Format : AC-3
Format/Info : Audio Coding 3
Mode extension : CM (complete main)
Format settings, Endianness : Big
Codec ID : A_AC3
Duration : 1 h 44 min
Bit rate mode : Constant
Bit rate : 384 kb/s
Channel(s) : 6 channels
Channel positions : Front: L C R, Side: L R, LFE
Sampling rate : 48.0 kHz
Frame rate : 31.250 FPS (1536 spf)
Bit depth : 16 bits
Compression mode : Lossy
Stream size : 288 MiB (31%)
Title : ☻rDX☻
Default : Yes
Forced : No

http://www.imdb.com/title/tt2388771




Sharing Widget


No Comments For This Torrent . Be The First to Comment

You must Login to Comment . Click Here to Login

Menu 1

Some content in menu 1.

Mowgli Legend Of The Jungle 2018 Movies HDRip x264 5 1 with Sample ☻ (Size: 946.0 MB)
  Mowgli Legend Of The Jungle 2018 Movies HDRip x264 5 1 with Sample ☻ 946.0 MB
tracker name
udp://tracker.leechers-paradise.org:6969/announce
udp://zer0day.ch:1337/announce
udp://open.demonii.com:1337/announce
udp://tracker.coppersurfer.tk:6969/announce
udp://exodus.desync.com:6969/announce
µTorrent compatible trackers list

Relative Torrents

Torrent Name Size Age SEED LEECH
Bigg Boss S12E88 12th December 2018 720pHDTV [ HDHub4u ]
Posted by    300movieshub   in   Movies
396.8 MB 3 minutes 621 544
Aiseesoft Blu-ray Player 6 6 18 + patch Crackingpatching
Posted by    CPuploads   in   Applications
45.2 MB 3 minutes 304 404
Clara's Ghost (2018) 720p WEBRip 800MB [ovCr]
Posted by    rock3   in   Movies
781.9 MB 3 minutes 478 767
Knowing (2009) (2160p BluRay x265 HEVC 1bit SDR AAC 7 1 Joy) [UTR]
Posted by    UTRCorp   in   Movies
5.5 GB 6 minutes 255 556
Inuyashiki (2018) (1080p BluRay 10bit x25 HEVC AAC 5 1 Qman) [UTR]
Posted by    UTRCorp   in   Movies
2.8 GB 6 minutes 172 485