Hospitality (2018) 720p WEB-DL 650MB [Mo Torrent Free Download

Seeders : 974   &   Leechers : 251      07-12-2018 (1 week)
Hospitality (2018) 720p WEB-DL 650MB [Mo Torrent Download
Added: ago by rock3 ***** in Movies   651.9 MB   Hits : 25
Info Hash: C83B08717F957953DF8D39AF3229889D7AAD97B1 Download
Hospitality (2018) 720p WEB-DL 650MB [Mo Torrent Download

Anonymous and Direct Download movies , software , shows...

Fast Safe Anonymous
movies, software, shows...
Hospitality
Short /Comedy /Drama  .   20 min   7.1/10
Starring : Drama  
Director : Todd Kaufman  
Writer: David Ciccarelli  
Tags: Hospitality  (2018)  720p  WEB-DL  650MB  [MovCr]  

Released:
21 May 1999
A traveling salesman takes refuge at an old bed and breakfast during the April Fool's Blizzard of 1997. The old couple that runs the B&B turn out to be more bitter and cold than any winter storm.

Torrent Description



Format                      : Matroska
Format version              : Version 4 / Version 2
File size                   : 652 MiB
Duration                    : 1 h 20 min
Overall bit rate            : 1 132 kb/s
Movie name                  : Hospitality.2018.720p.WEB-DL.MovCr.cc
Encoded date                : UTC 2018-12-07 06:48:17
Writing application         : mkvmerge v28.1.0 ('Morning Child') 32-bit
Writing library             : libebml v1.3.6 + libmatroska v1.4.9

Video
ID                          : 2
Format                      : AVC
Format/Info                 : Advanced Video Codec
Format profile              : [email protected]
Format settings             : CABAC / 5 Ref Frames
Format settings, CABAC      : Yes
Format settings, ReFrames   : 5 frames
Codec ID                    : V_MPEG4/ISO/AVC
Duration                    : 1 h 20 min
Bit rate                    : 1 067 kb/s
Width                       : 1 280 pixels
Height                      : 638 pixels
Display aspect ratio        : 2.008
Frame rate mode             : Constant
Frame rate                  : 23.976 (24000/1001) FPS
Color space                 : YUV
Chroma subsampling          : 4:2:0
Bit depth                   : 8 bits
Scan type                   : Progressive
Bits/(Pixel*Frame)          : 0.054
Stream size                 : 614 MiB (94%)
Writing library             : x264 core 155 r2901 7d0ff22
Encoding settings           : cabac=1 / ref=5 / deblock=1:0:0 / analyse=0x3:0x113 / me=hex / subme=8 / psy=1 / psy_rd=1.00:0.00 / mixed_ref=1 / me_range=16 / chroma_me=1 / trellis=2 / 8x8dct=1 / cqm=0 / deadzone=21,11 / fast_pskip=1 / chroma_qp_offset=-2 / threads=20 / lookahead_threads=3 / sliced_threads=0 / nr=0 / decimate=1 / interlaced=0 / bluray_compat=0 / constrained_intra=0 / bframes=3 / b_pyramid=2 / b_adapt=1 / b_bias=0 / direct=3 / weightb=1 / open_gop=0 / weightp=2 / keyint=240 / keyint_min=24 / scenecut=40 / intra_refresh=0 / rc_lookahead=50 / rc=2pass / mbtree=1 / bitrate=1067 / ratetol=1.0 / qcomp=0.60 / qpmin=0 / qpmax=69 / qpstep=4 / cplxblur=20.0 / qblur=0.5 / vbv_maxrate=62500 / vbv_bufsize=78125 / nal_hrd=none / filler=0 / ip_ratio=1.40 / aq=1:1.00
Default                     : Yes
Forced                      : No
Color range                 : Limited
Color primaries             : BT.709
Transfer characteristics    : BT.709
Matrix coefficients         : BT.709

Audio
ID                          : 1
Format                      : AAC
Format/Info                 : Advanced Audio Codec
Format profile              : HE-AAC / LC
Format settings             : Explicit
Codec ID                    : A_AAC-2
Duration                    : 1 h 20 min
Bit rate                    : 64.0 kb/s
Channel(s)                  : 2 channels
Channel positions           : Front: L R
Sampling rate               : 48.0 kHz / 24.0 kHz
Frame rate                  : 23.438 FPS (1024 SPF)
Compression mode            : Lossy
Delay relative to video     : 31 ms
Stream size                 : 36.9 MiB (6%)
Language                    : English
Default                     : Yes
Forced                      : No

Menu
00:00:00.000                : :1
00:07:18.021                : :2
00:14:09.974                : :3
00:20:41.031                : :4
00:26:47.981                : :5
00:34:55.010                : :6
00:42:15.033                : :7
00:49:33.971                : :8
00:54:29.975                : :9
01:03:26.011                : :10
01:09:00.970                : :11
01:17:52.001                : :12











Sharing Widget


No Comments For This Torrent . Be The First to Comment

You must Login to Comment . Click Here to Login

Menu 1

Some content in menu 1.

Hospitality (2018) 720p WEB-DL 650MB [MovCr] (Size: 651.9 MB)
  Hospitality (2018) 720p WEB-DL 650MB [MovCr] 651.9 MB
tracker name
udp://tracker.leechers-paradise.org:6969/announce
udp://zer0day.ch:1337/announce
udp://open.demonii.com:1337/announce
udp://tracker.coppersurfer.tk:6969/announce
udp://exodus.desync.com:6969/announce
µTorrent compatible trackers list

Relative Torrents

Torrent Name Size Age SEED LEECH
Unanchored S01E05 720p WEB x264-TBS [ezt]
Posted by    EZTVag   in   TV
821.2 MB 1 minute 899 771
Trilogy of Terror 1975 720p BluRay x264-SYCHD
Posted by    Trige   in   Movies
4.4 GB 3 minutes 595 292
Mariah Carey – Mariah Carey’s Officil UK Top 40 Biggest Singles (2018)
Posted by    Freak37   in   Music
375.5 MB 3 minutes 756 505
Bad Times at the El Yoyale 2018 1080p WE-DL DD5 1 264-[a2z]
Posted by    Cinemkv   in   Movies
2.4 GB 3 minutes 119 556
NOVA S30E14 The Elegant Universe Welcometo the 11th Dimension 720p WEB-DL PBS A
Posted by    Trige   in   TV
1.1 GB 6 minutes 348 764