Fantastic Beasts The Crimes of Grindelwa Torrent Free Download

Seeders : 176   &   Leechers : 818      07-12-2018 (1 week)
Fantastic Beasts The Crimes of Grindelwa Torrent Download
Added: ago by B4ND1T69 ***** in Movies   1.7 GB   Hits : 27
Info Hash: DB482FAF9FE0EE70402A0FCE9FEA0A7EE7A7EA5D Download
Fantastic Beasts The Crimes of Grindelwa Torrent Download

Anonymous and Direct Download movies , software , shows...

Fast Safe Anonymous
movies, software, shows...
Fantastic Beasts: The Crimes of Grindelwald
Adventure /Family /Fantasy  .   134 min   6.9/10
Director : David Yates  
Tags: Fantastic  Beasts  The  Crimes  of  Grindelwald  

Released:
16 Nov 2018
The second installment of the "Fantastic Beasts" series featuring the adventures of Magizoologist Newt Scamander.

Torrent Description



Fantastic.Beasts.The.Crimes.of.Grindelwald.2018.NEW.SOURCE.HDCam.XviD.B4ND1T69



Director: David Yates
Writers: J.K. Rowling, J.K. Rowling (based upon characters created by)
Stars: Eddie Redmayne, Katherine Waterston, Dan Fogler

Plot/Story:
In an effort to thwart Grindelwald's plans of raising pure-blood wizards to rule over all non-magical beings, Albus Dumbledore enlists his former student Newt Scamander, who agrees to help, though he's unaware of the dangers that lie ahead. Lines are drawn as love and loyalty are tested, even among the truest friends and family, in an increasingly divided wizarding world.

Notes:
Full movie, Centered, No focus issues etc.
Bright throughout, all dark scenes are well lit (check samples)
Cleaned up the image, lifted the levels when needed. Enjoy.

General
Complete name : Fantastic.Beasts.The.Crimes.of.Grindelwald.2018.NEW.SOURCE.HDCam.XviD.B4ND1T69.avi
Format : AVI
Format/Info : Audio Video Interleave
Format profile : OpenDML
File size : 1.58 GiB
Duration : 2 h 4 min
Overall bit rate : 1 810 kb/s
Source : Pl...thanks.
Samples : Yes...Included(4)

Video
ID : 0
Format : MPEG-4 Visual
Format profile : Advanced [email protected]
Format settings, BVOP : 2
Format settings, QPel : No
Format settings, GMC : No warppoints
Format settings, Matrix : Default (H.263)
Codec ID : FMP4
Duration : 2 h 4 min
Bit rate : 1 668 kb/s
Width : 720 pixels
Height : 336 pixels
Display aspect ratio : 2.143
Frame rate : 29.970 (30000/1001) FPS
Color space : YUV
Chroma subsampling : 4:2:0
Bit depth : 8 bits
Scan type : Progressive
Compression mode : Lossy
Bits/(Pixel*Frame) : 0.230
Stream size : 1.45 GiB (92%)
Writing library : XviD 64

Audio
ID : 1
Format : MPEG Audio
Format version : Version 1
Format profile : Layer 3
Mode : Joint stereo
Mode extension : MS Stereo
Codec ID : 55
Codec ID/Hint : MP3
Duration : 2 h 4 min
Bit rate mode : Constant
Bit rate : 128 kb/s
Channel(s) : 2 channels
Sampling rate : 44.1 kHz
Compression mode : Lossy
Stream size : 114 MiB (7%)
Alignment : Aligned on interleaves
Interleave, duration : 26 ms (0.78 video frame)

Screenshots:













Please Seed For As Long As Possible
Or At Least 1:1 Ratio...Thanks
Enjoy Peeps




Sharing Widget


No Comments For This Torrent . Be The First to Comment

You must Login to Comment . Click Here to Login

Menu 1

Some content in menu 1.

Fantastic Beasts The Crimes of Grindelwald 2018 NEW SOURCE HDCam XviD (Size: 1.7 GB)
  Fantastic Beasts The Crimes of Grindelwald 2018 NEW SOURCE HDCam XviD 1.7 GB
tracker name
udp://tracker.leechers-paradise.org:6969/announce
udp://zer0day.ch:1337/announce
udp://open.demonii.com:1337/announce
udp://tracker.coppersurfer.tk:6969/announce
udp://exodus.desync.com:6969/announce
µTorrent compatible trackers list

Relative Torrents

Torrent Name Size Age SEED LEECH
Americas Got Talent S13E00 A Holiday of hampions WEB x264-TBS
Posted by    Trige   in   TV
570.1 MB 8 minutes 426 872
Americas Got Talent S13E00 A Holiday of hampions WEB x264-TBS [eztv]
Posted by    EZTVag   in   TV
570.1 MB 8 minutes 95 387
Happy Together 2018 S01E11 720p HDTV x26 [200MB] [MP4]
Posted by    TorrentCouch   in   TV
200.9 MB 8 minutes 402 436
Americas Got Talent S13E00 A Holiday of hampions WEB x264-TBS[TGx]
Posted by    mazemaze16   in   TV
573.0 MB 8 minutes 576 205
The Neighborhood S01E11 720p WEB x264 [25MB] [MP4]
Posted by    TorrentCouch   in   TV
295.7 MB 8 minutes 296 829