Dumplin 2018 Movies HDRip x264 5 1 with Torrent Free Download

Seeders : 970   &   Leechers : 404      07-12-2018 (5 days)
Dumplin 2018 Movies HDRip x264 5 1 with Torrent Download
Added: ago by nehalpuja ***** in Movies   955.7 MB   Hits : 14
Info Hash: F8BC2490559005C6741B1D767F4D2633526DD5ED Download
Dumplin 2018 Movies HDRip x264 5 1 with Torrent Download

Anonymous and Direct Download movies , software , shows...

Fast Safe Anonymous
movies, software, shows...
Dumplin'
Comedy /Drama /Musical  .   N/A   N/A/10
Director : Anne Fletcher  
Tags: Dumplin  2018  Movies  HDRip  x264  5  

Released:
07 Dec 2018
Willowdean ('Dumplin'), the plus-size teenage daughter of a former beauty queen, signs up for her mom's Miss Teen Bluebonnet pageant as a protest that escalates when other contestants follow her footsteps, revolutionizing the pageant and their small Texas town.

Torrent Description



Dumplin 2018 Movies HDRip x264 5.1 with Sample ☻rDX☻
===============================================================================================

SCREEN SHOTS:



or

http://iphonehosting.eu/2018/11/b/blackberry/1.html

File size : 947 MiB
Duration : 1 h 50 min
Overall bit rate mode : Constant
Overall bit rate : 1 201 kb/s
Movie name : Dumplin 2018 Movies HDRip x264 5.1 ☻rDX☻

Video
ID : 2
Format : AVC
Format/Info : Advanced Video Codec
Format profile : [email protected]
Format settings, CABAC : Yes
Format settings, ReFrames : 2 frames
Format settings, GOP : M=1, N=12
Codec ID : V_MPEG4/ISO/AVC
Duration : 1 h 50 min
Bit rate mode : Constant
Bit rate : 818 kb/s
Width : 720 pixels
Height : 304 pixels
Display aspect ratio : 2.35:1
Frame rate mode : Constant
Frame rate : 23.976 FPS
Color space : YUV
Chroma subsampling : 4:2:0
Bit depth : 8 bits
Scan type : Progressive
Bits/(Pixel*Frame) : 0.156
Stream size : 625 MiB (66%)
Title : ☻rDX☻
Default : Yes
Forced : No

Audio
ID : 1
Format : AC-3
Format/Info : Audio Coding 3
Mode extension : CM (complete main)
Format settings, Endianness : Big
Codec ID : A_AC3
Duration : 1 h 50 min
Bit rate mode : Constant
Bit rate : 384 kb/s
Channel(s) : 6 channels
Channel positions : Front: L C R, Side: L R, LFE
Sampling rate : 48.0 kHz
Frame rate : 31.250 FPS (1536 spf)
Bit depth : 16 bits
Compression mode : Lossy
Stream size : 303 MiB (32%)
Title : ☻rDX☻
Default : Yes
Forced : No

http://www.imdb.com/title/tt4878482




Sharing Widget


No Comments For This Torrent . Be The First to Comment

You must Login to Comment . Click Here to Login

Menu 1

Some content in menu 1.

Dumplin 2018 Movies HDRip x264 5 1 with Sample ☻rDX☻ (Size: 955.7 MB)
  Dumplin 2018 Movies HDRip x264 5 1 with Sample ☻rDX☻ 955.7 MB
tracker name
udp://tracker.leechers-paradise.org:6969/announce
udp://zer0day.ch:1337/announce
udp://open.demonii.com:1337/announce
udp://tracker.coppersurfer.tk:6969/announce
udp://exodus.desync.com:6969/announce
µTorrent compatible trackers list

Relative Torrents

Torrent Name Size Age SEED LEECH
Unearthed 2016 S04E09 Lost City of the Mya 480p x264-mSD [eztv]
Posted by    EZTVag   in   TV
274.1 MB 1 minute 807 652
Bigg Boss S12E88 12th December 2018 720pHDTV [ HDHub4u ]
Posted by    300movieshub   in   Movies
396.8 MB 6 minutes 621 544
Aiseesoft Blu-ray Player 6 6 18 + patch Crackingpatching
Posted by    CPuploads   in   Applications
45.2 MB 6 minutes 304 404
Clara's Ghost (2018) 720p WEBRip 800MB [ovCr]
Posted by    rock3   in   Movies
781.9 MB 6 minutes 478 767
Knowing (2009) (2160p BluRay x265 HEVC 1bit SDR AAC 7 1 Joy) [UTR]
Posted by    UTRCorp   in   Movies
5.5 GB 9 minutes 255 556