Dumplin’ (2018) 720p NF WEB-DL 900MB [ Torrent Free Download

Seeders : 977   &   Leechers : 785      07-12-2018 (1 week)
Dumplin’ (2018) 720p NF WEB-DL 900MB [ Torrent Download
Added: ago by rock3 ***** in Movies   902.6 MB   Hits : 28
Info Hash: 253A5E438F17DDA80EE83FACC2D76BF722C8D1BA Download
Dumplin’ (2018) 720p NF WEB-DL 900MB [ Torrent Download

Anonymous and Direct Download movies , software , shows...

Fast Safe Anonymous
movies, software, shows...
Dumplin'
Comedy /Drama /Musical  .   N/A   N/A/10
Director : Anne Fletcher  
Tags: Dumplin’  (2018)  720p  NF  WEB-DL  900MB  

Released:
07 Dec 2018
Willowdean ('Dumplin'), the plus-size teenage daughter of a former beauty queen, signs up for her mom's Miss Teen Bluebonnet pageant as a protest that escalates when other contestants follow her footsteps, revolutionizing the pageant and their small Texas town.

Torrent Description



Format                      : Matroska
Format version              : Version 4 / Version 2
File size                   : 903 MiB
Duration                    : 1 h 50 min
Overall bit rate            : 1 145 kb/s
Movie name                  : Dumplin.2018.720p.NF.WEB-DL.MovCr.cc
Encoded date                : UTC 2018-12-07 09:50:50
Writing application         : mkvmerge v28.1.0 ('Morning Child') 32-bit
Writing library             : libebml v1.3.6 + libmatroska v1.4.9

Video
ID                          : 6
Format                      : AVC
Format/Info                 : Advanced Video Codec
Format profile              : [email protected]
Format settings             : CABAC / 5 Ref Frames
Format settings, CABAC      : Yes
Format settings, ReFrames   : 5 frames
Codec ID                    : V_MPEG4/ISO/AVC
Duration                    : 1 h 50 min
Bit rate                    : 1 080 kb/s
Width                       : 1 280 pixels
Height                      : 536 pixels
Display aspect ratio        : 2.40:1
Frame rate mode             : Constant
Frame rate                  : 23.976 (24000/1001) FPS
Color space                 : YUV
Chroma subsampling          : 4:2:0
Bit depth                   : 8 bits
Scan type                   : Progressive
Bits/(Pixel*Frame)          : 0.066
Stream size                 : 851 MiB (94%)
Writing library             : x264 core 155 r2901 7d0ff22
Encoding settings           : cabac=1 / ref=5 / deblock=1:0:0 / analyse=0x3:0x113 / me=hex / subme=8 / psy=1 / psy_rd=1.00:0.00 / mixed_ref=1 / me_range=16 / chroma_me=1 / trellis=2 / 8x8dct=1 / cqm=0 / deadzone=21,11 / fast_pskip=1 / chroma_qp_offset=-2 / threads=17 / lookahead_threads=2 / sliced_threads=0 / nr=0 / decimate=1 / interlaced=0 / bluray_compat=0 / constrained_intra=0 / bframes=3 / b_pyramid=2 / b_adapt=1 / b_bias=0 / direct=3 / weightb=1 / open_gop=0 / weightp=2 / keyint=240 / keyint_min=24 / scenecut=40 / intra_refresh=0 / rc_lookahead=50 / rc=2pass / mbtree=1 / bitrate=1080 / ratetol=1.0 / qcomp=0.60 / qpmin=0 / qpmax=69 / qpstep=4 / cplxblur=20.0 / qblur=0.5 / vbv_maxrate=62500 / vbv_bufsize=78125 / nal_hrd=none / filler=0 / ip_ratio=1.40 / aq=1:1.00
Default                     : Yes
Forced                      : No
Color range                 : Limited
Color primaries             : BT.709
Transfer characteristics    : BT.709
Matrix coefficients         : BT.709

Audio
ID                          : 1
Format                      : AAC
Format/Info                 : Advanced Audio Codec
Format profile              : HE-AAC / LC
Format settings             : Explicit
Codec ID                    : A_AAC-2
Duration                    : 1 h 50 min
Bit rate                    : 64.0 kb/s
Channel(s)                  : 2 channels
Channel positions           : Front: L R
Sampling rate               : 48.0 kHz / 24.0 kHz
Frame rate                  : 23.438 FPS (1024 SPF)
Compression mode            : Lossy
Delay relative to video     : 31 ms
Stream size                 : 50.5 MiB (6%)
Default                     : Yes
Forced                      : No

Text #1
ID                          : 2
Format                      : UTF-8
Codec ID                    : S_TEXT/UTF8
Codec ID/Info               : UTF-8 Plain Text
Duration                    : 1 h 49 min
Bit rate                    : 74 b/s
Count of elements           : 2048
Stream size                 : 59.8 KiB (0%)
Title                       : English
Language                    : English
Default                     : Yes
Forced                      : No











Sharing Widget


No Comments For This Torrent . Be The First to Comment

You must Login to Comment . Click Here to Login

Menu 1

Some content in menu 1.

Dumplin’ (2018) 720p NF WEB-DL 900MB [MovCr] (Size: 902.6 MB)
  Dumplin’ (2018) 720p NF WEB-DL 900MB [MovCr] 902.6 MB
tracker name
udp://tracker.leechers-paradise.org:6969/announce
udp://zer0day.ch:1337/announce
udp://open.demonii.com:1337/announce
udp://tracker.coppersurfer.tk:6969/announce
udp://exodus.desync.com:6969/announce
µTorrent compatible trackers list

Relative Torrents

Torrent Name Size Age SEED LEECH
Happy Together 2018 S01E11 720p HDTV x26 [200MB] [MP4]
Posted by    TorrentCouch   in   TV
200.9 MB 8 minutes 402 436
The Neighborhood S01E11 720p WEB x264 [25MB] [MP4]
Posted by    TorrentCouch   in   TV
295.7 MB 8 minutes 296 829
Busy Tonight 2018 12 17 Julie Bowen 720pWEB x264-TBS [eztv]
Posted by    EZTVag   in   TV
405.3 MB 8 minutes 702 786
Americas Got Talent S13E00 A Holiday of hampions 720p WEB x264-TBS [eztv]
Posted by    EZTVag   in   TV
778.1 MB 18 minutes 817 814
Anjaan: Rural Myths 2018 S01 Complete E0-15 Hindi WebRip 720p x264 AAC ESub - m
Posted by    mkvCinemas   in   Movies
5.1 GB 18 minutes 296 350