Baazaar (2018) Hindi 720p NF WEB-DL x264 Torrent Free Download

Seeders : 828   &   Leechers : 139      13-01-2019 (1 month)
Baazaar (2018) Hindi 720p NF WEB-DL x264 Torrent Download
Added: ago by likuaba ***** in Movies   911.0 MB   Hits : 19
Info Hash: F1EA89454F81C9C318DA270A00C9C60748DE7E1D Download
Baazaar (2018) Hindi 720p NF WEB-DL x264 Torrent Download

Anonymous and Direct Download movies , software , shows...

Fast Safe Anonymous
movies, software, shows...
Baazaar
Crime /Drama /Thriller  .   137 min   6.9/10
Director : Gauravv K. Chawla  
Tags: Baazaar  (2018)  Hindi  720p  NF  WEB-DL  

Released:
26 Oct 2018
Baazaar is a 2018 film starring Saif Ali Khan, Chitrangada Singh and Radhika Apte. With a plot revolving around stock-trading, the film, according to director Gauravv K. Chawla's is about making it in the big bad world of Mumbai.

Torrent Description



http://hdfilmboss.cc/
http://1337xhd.com/



Official Website http://hdfilmboss.cc/
Official Website http://1337xhd.com/



General
Complete name :1337xHD.Com-Baazaar (2018) Hindi 720p NF WEB-DL x264 AC3 900MB ESub.mkv
Format : Matroska
Format version : Version 4
File size : 911 MiB
Duration : 2 h 16 min
Overall bit rate : 933 kb/s
Movie name : www.HDFilmBoss.cc
Encoded date : UTC 2019-01-13 04:44:56
Writing application : mkvmerge v30.1.0 ('Forever And More') 64-bit
Writing library : libebml v1.3.6 + libmatroska v1.4.9 / Lavf58.20.100

Video
ID : 1
Format : AVC
Format/Info : Advanced Video Codec
Format profile : [email protected]
Format settings : CABAC / 4 Ref Frames
Format settings, CABAC : Yes
Format settings, RefFrames : 4 frames
Codec ID : V_MPEG4/ISO/AVC
Duration : 2 h 16 min
Bit rate : 843 kb/s
Width : 1 274 pixels
Height : 720 pixels
Display aspect ratio : 16:9
Frame rate mode : Variable
Frame rate : 24.000 FPS
Color space : YUV
Chroma subsampling : 4:2:0
Bit depth : 8 bits
Scan type : Progressive
Bits/(Pixel*Frame) : 0.038
Stream size : 831 MiB (91%)
Title : www.HDFilmBoss.cc
Writing library : x264 core 148 r2643 5c65704
Default : Yes
Forced : No

Audio
ID : 2
Format : AAC LC
Format/Info : Advanced Audio Codec Low Complexity
Codec ID : A_AAC-2
Duration : 2 h 16 min
Bit rate : 80.0 kb/s
Channel(s) : 1 channel
Channel layout : C
Sampling rate : 44.1 kHz
Frame rate : 43.066 FPS (1024 SPF)
Compression mode : Lossy
Stream size : 78.1 MiB (9%)
Title : www.HDFilmBoss.cc
Writing library : Lavc58.35.100 libfdk_aac
Language : Hindi
Default : Yes








Sharing Widget


No Comments For This Torrent . Be The First to Comment

You must Login to Comment . Click Here to Login

Menu 1

Some content in menu 1.

Baazaar (2018) Hindi 720p NF WEB-DL x264 AC3 900MB MSub -HD (Size: 911.0 MB)
  Baazaar (2018) Hindi 720p NF WEB-DL x264 AC3 900MB MSub -HD 911.0 MB
tracker name
udp://tracker.leechers-paradise.org:6969/announce
udp://zer0day.ch:1337/announce
udp://open.demonii.com:1337/announce
udp://tracker.coppersurfer.tk:6969/announce
udp://exodus.desync.com:6969/announce
µTorrent compatible trackers list

Relative Torrents

Torrent Name Size Age SEED LEECH
Last Week Tonight with John Oliver S06E0 1080p AMZN WEB-DL DDP2 0 H 264-monkee[
Posted by    mazemaze16   in   TV
2.1 GB 51 seconds 636 783
Murdered at 17 2018 1080p AMZN WEB-DL DD2 0 H 264-ABM[EtHD]
Posted by    EtHD   in   Movies
5.8 GB 5 minutes 698 401
Resolution Song 2018 1080p AMZN WEB-DL D+5 1 H264-iKA[EtHD]
Posted by    EtHD   in   Movies
3.8 GB 5 minutes 21 449
The Walking Dead S09E10 Omega 720p AMZN EB-DL DD+5 1 H 264 [eztv]
Posted by    EZTVag   in   TV
930.6 MB 10 minutes 6 418
Spotlight (2017) S01 Complete Ep (01-10)Viu Original 720p WEB-DL x264 AAC Hindi
Posted by    Piper   in   Movies
2.0 GB 17 minutes 895 477