Asher (2018) 720p WEB-DL 850MB [MovCr] Torrent Free Download

Seeders : 696   &   Leechers : 973      07-12-2018 (5 days)
Asher (2018) 720p WEB-DL 850MB [MovCr] Torrent Download
Added: ago by rock3 ***** in Movies   852.2 MB   Hits : 21
Info Hash: FBFE1F9498CCE4F454D2648CE5C4D7EFC45093CD Download
Asher (2018) 720p WEB-DL 850MB [MovCr] Torrent Download

Anonymous and Direct Download movies , software , shows...

Fast Safe Anonymous
movies, software, shows...
Asher
N/A   .   117 min   5.3/10
Director : Michael Caton-Jones  
Writer: Jay Zaretsky  
Tags: Asher  (2018)  720p  WEB-DL  850MB  [MovCr]  

Released:
07 Dec 2018
An aging hitman's last job goes sideways, forcing him to redeem himself.

Torrent Description



Format                      : Matroska
Format version              : Version 4 / Version 2
File size                   : 852 MiB
Duration                    : 1 h 44 min
Overall bit rate            : 1 144 kb/s
Movie name                  : Asher.2018.720p.WEB-DL.MovCr.cc
Encoded date                : UTC 2018-12-07 07:32:47
Writing application         : mkvmerge v28.1.0 ('Morning Child') 32-bit
Writing library             : libebml v1.3.6 + libmatroska v1.4.9

Video
ID                          : 2
Format                      : AVC
Format/Info                 : Advanced Video Codec
Format profile              : [email protected]
Format settings             : CABAC / 5 Ref Frames
Format settings, CABAC      : Yes
Format settings, ReFrames   : 5 frames
Codec ID                    : V_MPEG4/ISO/AVC
Duration                    : 1 h 44 min
Bit rate                    : 1 079 kb/s
Width                       : 1 280 pixels
Height                      : 532 pixels
Display aspect ratio        : 2.40:1
Frame rate mode             : Constant
Frame rate                  : 23.976 (24000/1001) FPS
Color space                 : YUV
Chroma subsampling          : 4:2:0
Bit depth                   : 8 bits
Scan type                   : Progressive
Bits/(Pixel*Frame)          : 0.066
Stream size                 : 803 MiB (94%)
Writing library             : x264 core 155 r2901 7d0ff22
Encoding settings           : cabac=1 / ref=5 / deblock=1:0:0 / analyse=0x3:0x113 / me=hex / subme=8 / psy=1 / psy_rd=1.00:0.00 / mixed_ref=1 / me_range=16 / chroma_me=1 / trellis=2 / 8x8dct=1 / cqm=0 / deadzone=21,11 / fast_pskip=1 / chroma_qp_offset=-2 / threads=17 / lookahead_threads=2 / sliced_threads=0 / nr=0 / decimate=1 / interlaced=0 / bluray_compat=0 / constrained_intra=0 / bframes=3 / b_pyramid=2 / b_adapt=1 / b_bias=0 / direct=3 / weightb=1 / open_gop=0 / weightp=2 / keyint=240 / keyint_min=24 / scenecut=40 / intra_refresh=0 / rc_lookahead=50 / rc=2pass / mbtree=1 / bitrate=1079 / ratetol=1.0 / qcomp=0.60 / qpmin=0 / qpmax=69 / qpstep=4 / cplxblur=20.0 / qblur=0.5 / vbv_maxrate=62500 / vbv_bufsize=78125 / nal_hrd=none / filler=0 / ip_ratio=1.40 / aq=1:1.00
Default                     : Yes
Forced                      : No
Color range                 : Limited
Color primaries             : BT.709
Transfer characteristics    : BT.709
Matrix coefficients         : BT.709

Audio
ID                          : 1
Format                      : AAC
Format/Info                 : Advanced Audio Codec
Format profile              : HE-AAC / LC
Format settings             : Explicit
Codec ID                    : A_AAC-2
Duration                    : 1 h 44 min
Bit rate                    : 64.0 kb/s
Channel(s)                  : 2 channels
Channel positions           : Front: L R
Sampling rate               : 48.0 kHz / 24.0 kHz
Frame rate                  : 23.438 FPS (1024 SPF)
Compression mode            : Lossy
Delay relative to video     : 31 ms
Stream size                 : 47.7 MiB (6%)
Language                    : English
Default                     : Yes
Forced                      : No

Menu
00:00:00.000                : :1
00:06:40.775                : :2
00:14:33.247                : :3
00:18:19.890                : :4
00:27:06.250                : :5
00:32:32.951                : :6
00:38:38.274                : :7
00:45:23.638                : :8
00:52:20.679                : :9
00:59:06.126                : :10
01:05:39.936                : :11
01:11:46.177                : :12
01:19:12.539                : :13
01:26:03.909                : :14
01:32:19.701                : :15
01:36:24.821                : :16











Sharing Widget


No Comments For This Torrent . Be The First to Comment

You must Login to Comment . Click Here to Login

Menu 1

Some content in menu 1.

Asher (2018) 720p WEB-DL 850MB [MovCr] (Size: 852.2 MB)
  Asher (2018) 720p WEB-DL 850MB [MovCr] 852.2 MB
tracker name
udp://tracker.leechers-paradise.org:6969/announce
udp://zer0day.ch:1337/announce
udp://open.demonii.com:1337/announce
udp://tracker.coppersurfer.tk:6969/announce
udp://exodus.desync.com:6969/announce
µTorrent compatible trackers list

Relative Torrents

Torrent Name Size Age SEED LEECH
The Predator (2018) 720p BluRay x264 [Dul Audio] [Org BD Hindi _Eng] Exclusive
Posted by    Hon3yHD   in   Movies
1.2 GB 4 minutes 419 104
Nightflyers S01E09 Icarus 720p AMZN WEB-L DDP5 1 H264-SiGMA[TGx]
Posted by    mazemaze16   in   TV
576.9 MB 5 minutes 34 766
Berlin Station (2016) S03E01 (1080p NF WB-DL x265 HEVC 10bit AAC 5 1 Vyndros)
Posted by    Vyndros   in   TV
1.3 GB 5 minutes 373 765
Nightflyers S01E09 Icarus 1080p AMZN WEBDL DDP5 1 H264-SiGMA[TGx]
Posted by    mazemaze16   in   TV
1.1 GB 5 minutes 115 699
Blindspot (2015) S04E08 (1080p AMZN WEB-L x265 HEVC 10bit AAC 5 1 Vyndros)
Posted by    Vyndros   in   TV
945.7 MB 5 minutes 390 911